I understand Beatles originally recorded the albums in mono and that’s how most fans want it. With the Beatles The Beatles in Mono 180 gram, 33 rpm, Mono 2014 Vinyl LP Parlophone / PMC 1206 With The Beatles CD Sized Album Replica, Limited Edition, Paper/Cardboard Sleeve, Remastered, SHM. - Sessions (outtakes, unused takes, recordings from TV shows, movies or radio). 5 GB Stream. In Reply to: RE: Anyone heard Apple's 24 bit Beatles FLAC rips from the USB? posted by b. The Beatles (White Album) Mono - Disc 1 & 2 BITRATE: FLAC TRACKS LISTING: DISC 1: 01 - Back In The U. In 2012, the Elektra Acetate was shared on torrent sites, blogs and on forums around the net, this is the earliest version of Glyn John's first Get Back compilation from early 1969. [REQUEST] The Beatles - Abbey Road & Let It Be (MONO) (VINYL/REEL FLAC) "but those albums weren't released in mono" actually they were, here's Discogs links to the official mono releases. Pepper sessions. RE: Anyone heard Apple's 24 bit Beatles FLAC rips from the USB? Posted by Tony Lauck (A) on December 14, 2009 at 13:48:18. Ebbetts | ~ 2547 or 1498 Mb | Artwork(jpg) -> 37 Mb Classic Rock ~ lease Please Me [PMC 1202], With The Beatles [PMC 1206], A Hard Day's Night [PMC 1230], Beatles For Sale [PMC 1240], Help! [PMC 1255], Rubber Soul [PMC 1267], Revolver [PMC 7009], A Collection Of Beatles. The Beatles - 5. flac" WAVE TRACK 01 AUDIO TITLE "Love Me Do (Original Single Version)" INDEX 01 00:00:00 TRACK 02 AUDIO TITLE "From Me To You" INDEX 01 02:27:62 TRACK 03 AUDIO TITLE "Thank You Girl" INDEX 01 04:28:58 TRACK 04 AUDIO TITLE "She Loves You" INDEX 01 06:33:41. The Beatles in Mono Vinyl Box Set (14 Discs, Sep - 2014) VERY NICE! 4. Download The Beatles - The U. FLAC The Beatles - The U. Pepper's Lonely Hearts Club Band. Albums Artist: The Beatles Release: 2014 Style: Rock Country: UK Time: 685:36 Audio: FLAC Losseless Size: 4,04 gb The U. Container: FLAC (image +. I found a couple of MP3 rips, but I wanted to have FLAC rips of the original vinyls. First off this is a review of the Beatles Mono Box Set CDs not the vinyl set. Tracklist:. Williams - Exit in Darkness (2019) FLAC FLAC 16 bit / Rock / Asian Music 21-12-2019, 21:09 236 0 aleXs All albums MONO A. 02 - She's A Woman. I found a couple of MP3 rips, but I wanted to have FLAC rips of the original vinyls. The Beatles in Mono Vinyl Box Set (14 Discs, Sep - 2014) VERY NICE! 4. 5 GB Stream. Martha My Dear-Mono Mix, Rec. Catalog #: TOCP-71041-53 Style: Rock Year: 2009 Format: FLAC (image +. The Beatles Mono Box Set 2009 plus Japanese Issues Mono Masters. Strawberry Fields Forever - Take 1 3. PLACE YOUR BID http://www. 491) Recorded Live at The Apple Corps Rooftop Perfomance - January 30, 1969 (tracks 1-9) + Olympic Sound Studios, London, UK - January 30, 1969. Here is the link to both the Beatles in 24 Bit FLAC and mono for all of you who havent experienced them in this format. The Beatles - Sgt. 7 GB: 0: 0: unknown: The Beatles White Album 2018 5 1 Remix FLAC with Track Sync Fix: Today: 4. Penny Lane (Original Mono Mix) 16. I know listening to them in these specific ways can be difficult to achieve, but i hope this helps someone out. After some time I gave up, forgetting about the mono Beatles until the Gizmodo's audio week. 1 surround sound, restoring depth to the recordings' rich and luscious soundscapes while retaining the original "mono" centered. Pepper sessions. Pepper's Lonely Hearts Club Band (Reprise) -Overdubbed two-note guitar lick in mono (transition from GMGM), in stereo it's badly spliced and the first note is cut off -Audible speech from John before "1-2-3-4" in mono, not in stereo -Audience laugh in mono, crowd noise in stereo (no laughs) -Paul screaming at the end is very audible in mono, but buried very deep in the mix, almost inaudible, in stereo. 25 GB: 0: 0: The Beatles - 5. Williams - Exit in Darkness (2019) FLAC FLAC 16 bit / Rock / Asian Music 21-12-2019, 21:09 236 0 aleXs All albums MONO A. The - Help! (UK Mono Ebbetts) - 05. Ebbetts was used to verify testing. 2 MBytes yEnc DrummerDude 07-Jul. Back to Basics - Beatles For Sale Sessions CD2 - "23 - I Feel Fine (RM from Take 9 V1) (mono with stereo reverb). All My Loving 4. 59 GB: 0: 0. While My Guitar Gently Weeps Take 1, Rec. Some of the stereo mixes were done separately from the mono versions so there are small differences. The Beatles - The Lost Pepperland Reel And Other Rarities (1995) Rock | EAC Rip | Flac (Tracks) + Cue + Log | MP3 CBR 320Kbps | 20 Tracks. Although the quartet put out stereo versions of their albums concurrent with the mono ones throughout most of their career, the Beatles considered the mono versions as. 02 - Dear Prudence 03 - Glass Onion 04 - Ob-La-Di, Ob-La-Da. Ebbetts UK Mono Albums Collection CDRip | Flac(Image) + Cue, no Log | MP3 CBR 320Kbps 15CD | Dr. Unissued) 9-5 I'm A Lover Not A Fighter (Alternate Mono Mix) (Prev. PLACE YOUR BID http://www. Beatles flac Beatles flac. flac:6a1bf16414628b704a9ce7435376f330 10 - The Beatles - Revolution 1 (Mono Mix). Beatles in flac Beatles in flac. 28 de Abril de 2011. The Beatles - The Beatles: The White Album [Mono] [Vinyl-Rip] (1968) FLAC rutor. Ebbetts has decided to retire, so that may say something about the quality. I also wanted to convert to MP3 for our IPODS, but the convert does not function. Five CDs, featuring studio and mono versions of session tracks, demos, and alternate mixes. The Beatles didn’t start recording for stereo until the white album when they had an 8 track recording system, but unfortunately given the animosity of those sessions, the Beatles recorded in an un-uniform often isolated way, therefore some songs sound better in mono and some sound better in stereo. Roll Over Beethoven 9. flac 17 MB. A stereo White album tape was sold for £120 in October and a stereo "Abbey Road" brought £114 in December. FLAC The Beatles - The U. Pepper's Lonely Hearts Club Band (50th Anniversary Super Deluxe Edition) (2017). on Oct 4, '68 12. Along with the 320kbps (high quality) mp3s, this USB stick also includes The Beatles entire remastered stereo catalog in 24bit FLAC and that’s what interests me. 7 GB: 0: 0: unknown: The Beatles White Album 2018 5 1 Remix FLAC with Track Sync Fix: Today: 4. 2 - Live Anthology : Tour Of America 1965 (MBE) (1970) (FLAC) The Beatles - Lossless - The Beatles (UK mono LP) (Spamalot needledrop) (1970) (FLAC). lrc: 1 KB: 03 From Me To You Mono - Remastered. And I Love Her [Mono - Single-Tracked Vocal] And I Love Her [Stereo - Extended Ending] And Your Bird Can Sing [True Stereo] Anytime At All [Mono] Any Time At All [True Stereo] Back In The U. For the best expression of the Beatles’ 24-bit/192kHz digital remasters, you can hope Capitol releases this catalog on Blu-ray. In 1987, the Beatles' albums appeared on compact disc for the first time. I found a couple of MP3 rips, but I wanted to have FLAC rips of the original vinyls. Sweet Georgia Brown (US Version Mono) (Double CD :: Ex+ Soundboard :: MP3 @320 Kbps & FLAC) 6 years ago. The Beatles Help! (Shell Helps Campaign) B4 (Remastered Edition) (2005 Remasters Workshop : RMW 220) Assorted Artwork Included Encoded: 320 Kbps MP3 & FLAC Remastered from the CD on B4 CT-004 (1995). 44 GiB, ULed by jmwreck: 1: 1: Audio Tony Bennett 24 Bit Vinyl Pack. The Beatles - The U. A Hard Day's Night - Take 1 (mono) 02. Robert 24bit/96khz MFSL Stereo] Please Please Me - MFSL1-101 With the Beatles - MFSL1-102 A Hard Day's Night - MFSL1-103 Beatles for Sale - MFSL1-104 Help! - MFSL1-105 Rubber Soul - MFSL1-106 Revolver - MFSL1-107 Sgt. Whereas the mono CD songs have a dullness to them. The Beatles - And I Love Her (Mono Mix) [02:34] (Mono). The set was released on compact disc on 9 September 2009, the same day the remastered stereo recordings and companion The Beatles (The Original Studio Recordings) were also released, along with The Beatles: Rock Band video game. Cover del box set "The Beatles In Mono", lanzado en septiembre de 2009. 1 (2001) (Dr. cue Audio file: The Beatles - Mono Masters (CD1). Mono Box Set (2009 Remaster): 1963 — Please Please Me 1963 — With The Beatles 1964 — A Hard Day's Night 1964 — Beatles For Sale 1965 — Help! 1965 — Rubber Soul 1966 — Revolver 1967 — Magical Mystery Tour 1967 — Sgt. The Beatles themselves spent most of their energy working on the mono mixes up through Magical Mystery Tour. Uploaded 02-17 2014, Size 9. Happiness Is A Warm Gun-Mono Mix, louder bass at "I Need A Fix" part 11. 4 MB: 023 Yer Blues THE BEATLES. The Beatles - Rarities (1978)(Blue Box)(FLAC)(DESS UK Mono And Stereo) 01 Across The Universe. flac10 MB06 Thank You Girl. FLAC, about the same as vinyl but gained lower. Beatles, The - Past Masters Selection (Remastered Edition RMW 028) [SBD] MP3 + FLAC Encoded: 320 Kbps MP3 & FLAC True Mono Mix 06 Lucy In The Sky With. Pepper's Lonely Hearts Club Band (1967/2017) FLAC (tracks) 24-bit/48 kHz | Stereo | Time - 46:58 minutes | 613 MB ADVD: LPCM Stereo Track to FLAC 24/48 | + Artwork: DLX Digital booklet It was 50 years ago when The Beatles' John Lennon, Paul McCartney, George Harrison, and Ringo Starr astonished and delighted the world, ushering in the Summer of Love with Sgt. The BEATLES (‘White Album’) was the first Beatles album to be released on the group’s own Apple Records label. Covers Included | Vigotone | VIGO-132 | ~308 + 133 b | 3% Recovery | HF, FileSonic. Congrats to EMI for having the guts to do a full analog mono release of The Beatles Mono Boxed Set. (all the information about Purple Chick's releases can be found in this link). Quality: FLAC 16 bit / 44. コレクターズCD THE BEATLES In ITALY / Dr. Pepper's Lonely. The - Help! (UK. What would be the disadvantages of converting these stereo tracks into mono rather than buying the mono remasters? Would there be a difference at all? Stereo is annoying when listening in headphones. Beatles Song info "Little Child" (2006) on the albums With the Beatles (1963) , The Capitol Albums Vol. Please Mister Postman 8. The Beatles in Mono > 1-Channel FLAC? Reply #2 - 2010-03-26 14:39:17 You probably save more space by switching to a higher compression setting, and it'd probably take about the same amount of time. Ebbetts, an individual who has taken it upon himself to offer the highest quality mono Beatles masters to the general public, simply because Apple and EMI would not do it themselves. Pepper's Lonely Hearts Club Band (Japanese Mono LP) With The Beatles (Japanese Mono LP) Yellow Submarine (Japanese Mono LP). THE BEATLES / WHITE ALBUM COLLECTION MONO MIXES IN STEREO AND DVD AUDIO 新品プレスDVD +2 CD. This blog is dedicated to the Beatles but in particular, John and George who went on to a higher, better plane. Five CDs, featuring studio and mono versions of session tracks, demos, and alternate mixes. Peppers Lonely Heart Club Band 1968 — The Beatles (White Album) 2009 — Mono Masters. Any complete CD albums, whether in multiple files or single file archive (e. Excellent Soundboard Recording -> Bootleg Silver CD:: CBR 320 kbps. 95 MB 06 tB,SPLHC06-She's Leaving Home. The Beatles - 5. Back to Basics - Beatles For Sale Sessions CD2 - "32 - Leave My Kitten Alone (RM from Take 5 V1) (mono with stereo reverb). Top of The Pops Vol 2 of 10 1965 (Flac + MP3) music downloads. 1 - (Crystal clear versions of the original LPs that contained those rare tracks) C1-91135A. PLACE YOUR BID http://www. THE BEATLES - STEREO AND MONO BOX SETS [2009] + EXTRAS [v0 VBR][MP3] These Beatles albums were encoded to mp3 from lossless FLAC sources (CD rips) using the quality setting - v0 VBR "extreme" and joint stereo for all tracks. Vinyl, VERY GOOD. Scene FLAC Music, muzik, musik scene Club, sets mix, music mp3s, WEB 320kbps Tracks, Private FTP Server, Muaix VIP, Dance Hits, 90s Various artists VA, EDM Live Radio, Music Stream, Electro House, Club Dance Music Mix, Electro House, Deep House, Chill Out, Trap, Bounce and much more. The Beatles - Mono Vinyl Remaster 2009 The Beatles - TBIM A Hard Days Night (2014 Vinyl Remaster 2009) 24Bit FLAC Beolab1700 covers/01 - A Hard Day's Night - Front. The - Help! (UK Mono Ebbetts) - 06. Beatles Song info "Little Child" (2006) on the albums With the Beatles (1963) , The Capitol Albums Vol. The Beatles - If I Fell (Mono Mix) [02:22] 9. Some of the stereo mixes were done separately from the mono versions so there are small differences. the beatles - the beatles in mono (box) 11 albums supertramp - 1970 - 2005 [flac] roberto carlos - discografia en espaÑol + italian little river band [1975 - 2013] [27 cds] the ventures - 1960 -2010 dusty springfield - coleccion [1964 - 2014] varios - super schlagerparade [1965 - 1986] maria dolores pradera 1959 - 2014. The Beatles - FLAC Stereo and Mono Box Sets + Extras Audio (FLAC). The Beatles Live At The Hollywood Bowl - Deluxe Edition Purple Chick Lineage: SilverCDs--> EAC(secure)--> Flac--> Demonoid DISC ONE The Beatles At The Hollywood Bowl. Kite [Mono] Blackbird [Mono] Blue. flac:b5a91b99e46e527a7c03c32e1e7301ef 09 - The Beatles - Long, Long, Long (Mono Mix). Singles Collection Vol. Now comes a new companion to The Beatles' first BBC collection, On Air - Live At The BBC Volume 2, will On Air's 63 tracks, none of which overlaps with The Beatles' first BBC release, include 37 previously unreleased performances and 23 previously unreleased recordings of in-studio banter and conversation between the band's members and their. 1 surround sound, restoring depth to the recordings' rich and luscious soundscapes while retaining the original "mono" centered soundstage intended by the band. Ebbetts Sound Systems). A Hard Day's Night - Take 1 (mono) 02. The - Help! (UK Mono Ebbetts) - 03. Emma Bunton Life In Mono Special Edition CD FLAC 2006 TaBoo download File name: Emma Bunton-Life In Mono-Special Edition-CD-FLAC-2006-TaBoo. The Beatles USB memory stick is the digital version of The Beatles in Stereo Box Set which was released on 9/9/9. and in stereo for the U. 13 -===- D:Torrent DownloadsMusicBeatles Deluxe - 06 Rubber SoulDisc 2 - mono13 - In My Life (mono). King’ Singers (2011) PS3 Rip | ISO | SACD DST 64 2. There will be two box sets; a limited-edition mono box set will contain. Pepper's Lonely Hearts Club Band (Reprise) -Overdubbed two-note guitar lick in mono (transition from GMGM), in stereo it's badly spliced and the first note is cut off -Audible speech from John before "1-2-3-4" in mono, not in stereo -Audience laugh in mono, crowd noise in stereo (no laughs) -Paul screaming at the end is very audible in mono, but buried very deep in the mix, almost inaudible, in stereo. They obviously don't want to pass the original analogue masters through the analogue tape-machines any more than they need too, and IMHO 24-bit. Beatles in flac. The beatles mono flac. The Beatles In Italy (Italian Mono) - Ebbetts BITRATE: FLAC. I ripped The Beatles in Mono to FLAC. The Beatles – Please Please Me (1963/2009) FLAC (tracks) 24 bit/44,1 kHz | Time – 32:28 minutes | 429 MB. 19 MB] 19 - Penny Lane (Capitol Records Mono US Promo Mix). I've been a Beatles freak since I was 8 years old, so seeing or hearing new music, pictures or stories is a great pleasure. flac Extracted successfully Conclusion: This track looks like CDDA with probability 100% 19 -===- D:\Torrent Downloads\Music\Beatles Deluxe - 06 Rubber Soul\Disc 2 - mono\19 - We Can Work It Out (TV mono). Covers Included | Vigotone | VIGO-132 | ~308 + 133 b | 3% Recovery | HF, FileSonic. Is there some flac command line magic I can do to knock them down to one channel without having to re-rip everything? Seems a waste of space to have "mono" tracks at twice the size they need to be. Some mono mixes are better, some stereos are better, and collecting the variations is part of the fun. 20 MB: 0: 0. Its the stereo Remaster. Revolver Recording Sessions. The Beatles Original Studio Recordings Box Set in Stereo is far superior, the stereo recordings pop out at you and are bright and crystal clear. (all the information about Purple Chick's releases can be found in this link). All things look normal but press OK and it closes the dialog box as normal and does nothing at all. The Beatles in Mono, The Beatles - The Beatles (White Album) [2009 Mono Remaster], Disc 2, 05 The Beatles - Sexy Sadie. Relative Channel Loudness. Issued in both stereo and mono for the U. At the time of writing, the mono albums are not available individually. (all the information about Purple Chick's releases can be found in this link). Pepper's Lonely Hearts Club Band. Presented entirely in mono and taken from the master tapes, The Lost Pepperland Reel features music, words, sounds, and experiments from the 1967 Sgt. 19 MB] 19 - Penny Lane (Capitol Records Mono US Promo Mix). flac Extracted successfully. 4 MB: 019 Two of Us LET IT BE. While My Guitar Gently Weeps Take 1, Rec. I didn’t get a quality stereo system until the 1970s. Congrats to EMI for having the guts to do a full analog mono release of The Beatles Mono Boxed Set. REVIEW: THE BEATLES MONO MASTERS –mono mixes in stereo (Mirror Spock) –Released April, 2010 By Beatle Bob A must welcomed surprise from Mirror Spock arrived a few weeks ago, THE BEATLES MONO MASTERS – (mono mixes in stereo) and I must say this has been one of the most delightful remix CDs that I’ve had the privilege of cranking up on the stereo. Although the quartet put out stereo versions of their albums concurrent with the mono ones throughout most of their career, the Beatles considered the mono versions as. You Really Gotta Hold On Me. The Beatles - FLAC Stereo and Mono Box Sets + Extras Audio (FLAC). Until then, there’s always a $1000-plus Mo-Fi LP box-set up for bid on eBay. flac10 MB04 The Inner Light. , the double album was an immediate bestseller, entering the British chart at number one and remaining there for eight of the 22 weeks it was listed. The Beatles In Mono (2009) (MP3/Flac) Juanma14_9. The Beatles - 5 1 Mono Collection (2020) - 10 Studio Albums [ FLAC] v62: 12. 01 GiB, ULed by insinuendo, 2, 0 Audio (FLAC). [Mono] Bad Boy [Mono] The Ballad Of John And Yoko [Mono] Beatles Medley [Stereo] Being For The Benefit Of Mr. FLAC (tracks) 24 bit/44,1 kHz | Time – 619:03 minutes | No Art | 7,32 GB 14 albums, 226 songs, over than 10 hours of Music | Source: Apple-shaped USB drive. Presented in both mono and stereo (The Beatles Story and Hey Jude: stereo mix only) Replica miniature LP packaging All albums are packaged in miniature vinyl sleeves that faithfully recreate the original U. Pepper's Lonely Hearts Club Band. I found a couple of MP3 rips, but I wanted to have FLAC rips of the original vinyls. Let It Be (Japanese Single Mono Mix) 27. 1 kHz (Tracks) Artist: The Beatles Title: Yellow Submarine [Remastered] Released: 1969/2016 Style: Pop Rock, Classic Rock RAR Size: 239 Mb. Issued in both stereo and mono for the U. When it comes to sixties recordings I'm a purist. Whereas the mono CD songs have a dullness to them. The Beatles (The Original Studio Recordings) - also known as The Beatles: Stereo Box - is a box set compilation comprising all remastered recordings by English rock band the Beatles. After some time I gave up, forgetting about the mono Beatles until the Gizmodo's audio week. Pepper's Lonely Hearts Club Band (mono)Sergeant mono. 8224 MHz | 54:26 minutes | Scans included | 3,7 GB or FLAC 2. 1 MB: 021 Rocky Raccoon THE BEATLES. I found a couple of MP3 rips, but I wanted to have FLAC rips of the original vinyls. Strawberry Fields Forever (Original Mono Mix) 15. All things look normal but press OK and it closes the dialog box as normal and does nothing at all. And I Love Her [Mono - Single-Tracked Vocal] And I Love Her [Stereo - Extended Ending] And Your Bird Can Sing [True Stereo] Anytime At All [Mono] Any Time At All [True Stereo] Back In The U. Container: FLAC (image +. │ Beatles, The - Yellow Submarine Songtrack (Mono Ebbetts 2005) - 14. Then, AS THE ORIGINAL CD IS MONO I converted the STEREO FLAC to MONO FLAC using sox: sox. 0 (converted with foobar2000 to tracks) 24bit/88,2 kHz | Scans included | 1,08 GB. ebbetts dbm 056 - conozca a the beatles - mexican stereo lp picture tracks: dr. Five CDs, featuring studio and mono versions of session tracks, demos, and alternate mixes. The Beatles in Mono box set includes the first release of many of The Beatles original mono mixes on CD but it also actually is the first time some of these mixes have ever been released in any format (including vinyl!). 413; FLAC • 531 kbps • 16 bit \ 44100 Hz • stereo; 164. The stereo LPs aren’t the absolute audiophile experience (a mono box is due later this year). The Beatles in Mono, The Beatles - The Beatles (White Album) [2009 Mono Remaster], Disc 2, 05 The Beatles - Sexy Sadie. The Beatles - 5. A specially designed Flash interface has been installed, and the 16GB USB's audio and visual contents will be provided in FLAC 44. on Oct 8, '68 9. FLAC, about the same as vinyl but gained a little lower. The Beatles In Mono (2009) (MP3/Flac) Juanma14_9. Pepper's Lonely Hearts Club Band - 1982 (Japan),(Mono), DSD 128 (tracks) The Beatles - The Beatles Collection (1978) [14LP Box Set] The Beatles - The Collection [MFSL Super Vinyl Box] (1982) [24bit Vinyl Rip]. Vinyl and FLAC, EXCELLENT. Blackbird (Demo '68)-Early take 14. In Reply to: RE: Anyone heard Apple's 24 bit Beatles FLAC rips from the USB? posted by b. Sonic Rating by Mono Summing. 25 GB: 0: 0: The Beatles - 5. View credits, reviews, tracks and shop for the 2014 Box Set release of The Beatles In Mono on Discogs. Kite [Mono] Blackbird [Mono] Blue. First off this is a review of the Beatles Mono Box Set CDs not the vinyl set. 98 MB 04 tB,SPLHC04-Getting Better. Pepper's Lonely. Beatles ebbetts flac. lrc: 1 KB: 03 From Me To You Mono - Remastered. Pepper's Lonely Hearts Club Band (50th Anniversary Super Deluxe Edition) (2017). [Mono] Bad Boy [Mono] The Ballad Of John And Yoko [Mono] Beatles Medley [Stereo] Being For The Benefit Of Mr. The Beatles ‎- Sgt. Issued in both stereo and mono for the U. THE BEATLES / WHITE ALBUM COLLECTION MONO MIXES IN STEREO AND DVD AUDIO 新品プレスDVD +2 CD. Considering how much music had already found its way to CD, the Beatles were very late, so the digital rollout was a big deal. It was recently brought to my attention that the new Apple USB Memory stick containing all the Beatles remasters offers a sonic advantage over their CD equivalents. A Day In The Life (Unreleased First Mono Mix) 17. CD07 - A Hard Day's Night No. However, they are in stereo since it’s likely the source came from original stereo mixes back when Beatles catalogue first became available on CD. │ Beatles, The - Yellow Submarine Songtrack (Mono Ebbetts 2005) - 14. And Apple Corps coulda/shoulda provided the Anthology tracks, the Anthology DVD files, the stereo remasters of the songs on Yellow Submarine and Love and 1. The Beatles Mono Box Set 2009 plus Japanese Issues Mono Masters. You're Going to Lose that Girl. flac: 19,304 KB: 04 She Loves You Mono - Remastered. In Reply to: RE: Anyone heard Apple's 24 bit Beatles FLAC rips from the USB? posted by b. The Beatles In Mono (2009) (MP3/Flac) Juanma14_9. They mono mixes are still unavailable in 24-bit format, so The Beatles In Mono CD set is a poor substitute. Beatles Song info "Little Child" (2006) on the albums With the Beatles (1963) , The Capitol Albums Vol. Pepper's Lonely Hearts Club Band (Japanese Mono LP) With The Beatles (Japanese Mono LP) Yellow Submarine (Japanese Mono LP). It Won't Be Long 2. Unissued) 9-5 I'm A Lover Not A Fighter (Alternate Mono Mix) (Prev. (STUDIO CHAT) (MONO) 19. uk/itm/141045320870?ssPageName=STRK:MESELX:IT&_trksid=p3984. flac channels 1 1. 5 years to the day after the release of The Beatles in Mono, a box set of the group’s monaurally mixed catalog through 1968, the band is issuing a vinyl version of the box set. 2009 - The Beatles Stereo Box Set 2009 - The Beatles In Mono Box Set 2010 - The Beatles 1962-1966 / 1967-1970 Box Set 2013 - Live At The BBC If you want to split a single. The Beatles - The Beatles Original Mono Record (11 LP, Vinyl Rip) / Rock / 1982-1986 / WavPack / Lossless kinozal. Back to Basics - Beatles For Sale Sessions CD2 - "23 - I Feel Fine (RM from Take 9 V1) (mono with stereo reverb). 9, Apple and EMI will release all of The Beatles' albums, newly remastered and sounding better than ever. lrc: 1 KB: 04 She Loves You Mono - Remastered. FLAC employs a lossless data compression algorithm. (STUDIO CHAT) (MONO) 19. Kennedy's tragic. Pepper's Lonely Hearts Club Band (1967/2017) FLAC (tracks) 24-bit/48 kHz | Stereo | Time - 46:58 minutes | 613 MB ADVD: LPCM Stereo Track to FLAC 24/48 | + Artwork: DLX Digital booklet It was 50 years ago when The Beatles' John Lennon, Paul McCartney, George Harrison, and Ringo Starr astonished and delighted the world, ushering in the Summer of Love with Sgt. Beatles ebbetts flac. Iger, Executive Chairman, The Walt Disney Company, at Disney’s annual meeting of shareholders. The Beatles - Sgt. Up until 1968, each Beatles album was given a unique mono and stereo mix, but the group always regarded the mono as primary. 54 GB 2020-06-02 0 0 (Rock & Roll, Pop-Rock) The Beatles - CD Singles Collection (1992) [FLAC (Image+. zeebub on December 14, 2009 at 11:03:38:. Peppers Lonely Heart Club Band 1968 — The Beatles (White Album) 2009 — Mono Masters. Strawberry Fields Forever - SI onto take 1 Nov 28th 1966 - Studio 2, 7:00pm-1:30am 4. VIP Uploaded 11-28 2010, Size 11. All times are UTC + 1 hour ABBEY ROAD IN MONO in. Tracklist:. Ebbetts | ~ 2547 or 1498 Mb | Artwork(jpg) -> 37 Mb Classic Rock ~ lease Please Me [PMC 1202], With The Beatles [PMC 1206], A Hard Day's Night [PMC 1230], Beatles For Sale [PMC 1240], Help! [PMC 1255], Rubber Soul [PMC 1267], Revolver [PMC 7009], A Collection Of Beatles. 77 MB │ Beatles, The - Yellow Submarine Songtrack (Mono Ebbetts 2005) - 15. The Beatles - 5 1 Mono Collection (2020) - 10 Studio Albums [ FLAC] v62: 12. The first article I ever got published was an opinion piece on Sgt Pepper’s Lonely Hearts Club Band. The Beatles - With The Beatles [MONO] [smb] 4 days : audio: 14: 80. (The Godfatherecords :: G. 02 MB 03 tB,SPLHC03-Lucy in the Sky with Diamonds. 84 MB] Beatles. Download The Beatles - The U. Issued in both stereo and mono for the U. 61 MB │ Front Cover. and in stereo for the U. flac 17 MB. Pepper's Lonely Hearts Club Band-50th Anniversary Super Deluxe Edition(4CD-Capitol-320kbps/FLAC) Penny Lane (Capitol Records Mono US Promo. The Beatles - Red Wax Mono Yellow Submarine Beatles For Sale - Red Wax Mono A Hard Day's Night - Red Wax Mono Rubber Soul - Red Wax Mono UK Singles Collection UK EP Collection US Singles Collection Yellow Dog Day By Day Fabulous Sound Lab Swedish Radio Show Live The Beatles And The great Concert At Shea The Beatles At The Hollywood Bowl. I Love You / Baby It's You / Do You Want To Know a Secret / A Taste Of Honey / There's A Place / Twist And Shout. Nice upper-middle, the guitar and vocal shining. The Beatles - Let It Be (1970) [flac] {DESS Blue Box} The Beatles Mono Box Set 2009 plus Japanese Issues Mono Masters. I have Beatles FLAC Discography. Then I put the little Beatles USB back in the Apple it came in, placed all original documentation in the box and put it away. Ebbetts has decided to retire, so that may say something about the quality. Joint stereo is quite an effective way of compressing mono recordings as well as stereo recordings. Ebbetts | ~ 2547 or 1498 Mb | Artwork(jpg) -> 37 Mb Classic Rock ~ lease Please Me [PMC 1202], With The Beatles [PMC 1206], A Hard Day's Night [PMC 1230], Beatles For Sale [PMC 1240], Help! [PMC 1255], Rubber Soul [PMC 1267], Revolver [PMC 7009], A Collection Of Beatles. Penny Lane (Capitol Records US Promo Single - Mono Mix)-----Stereo Mix, Surround Mix. After some time I gave up, forgetting about the mono Beatles until the Gizmodo's audio week. Williams MONO and A. [Mono] Bad Boy [Mono] The Ballad Of John And Yoko [Mono] Beatles Medley [Stereo] Being For The Benefit Of Mr. Pepper's Lonely Hearts Club Band. CUE), Lossless]. Cover del box set "The Beatles In Mono", lanzado en septiembre de 2009. A seriously audiophile-minded undertaking! The Beatles in mono is how most listeners first heard the Fab 4's first recordings, when mono was the predominant audio format. on July 25, '68 10. The Beatles (The Original Studio Recordings) – also known as The Beatles: Stereo Box – is a boxed set compilation comprising all remastered recordings by British rock group the Beatles. Back in the 1960’s only Hi-Fi snobs or your parents had stereo record players. flac: 19,304 KB: 04 She Loves You Mono - Remastered. flac" WAVE TRACK 01 AUDIO TITLE "Love Me Do (Original Single Version)" INDEX 01 00:00:00 TRACK 02 AUDIO TITLE "From Me To You" INDEX 01 02:27:62 TRACK 03 AUDIO TITLE "Thank You Girl" INDEX 01 04:28:58 TRACK 04 AUDIO TITLE "She Loves You" INDEX 01 06:33:41. Question: Q: The Beatles in Mono - 48 of 185 mono songs Matched to stereo versions System used: Windows 7 x64, iTunes 10. Download The Beatles - The Original MONO Issues (1963-1967), FLAC [8 LP, 24/192] or any other file from Music category. I understand Beatles originally recorded the albums in mono and that’s how most fans want it. flac 0 MB 24 - Komm Gib Mir Deine Hand - Odeon Single Mix (mono). With the Beatles The Beatles in Mono 180 gram, 33 rpm, Mono 2014 Vinyl LP Parlophone / PMC 1206 With The Beatles CD Sized Album Replica, Limited Edition, Paper/Cardboard Sleeve, Remastered, SHM. flac10 MB04 The Inner Light. 2009 - The Beatles Stereo Box Set 2009 - The Beatles In Mono Box Set 2010 - The Beatles 1962-1966 / 1967-1970 Box Set 2013 - Live At The BBC If you want to split a single. 1 Khz 24 bit and MP3 320 Kbps formats, fully compatible with both PC and Mac. (2) Pbthal Die Beatles needle-drop FLAC. 03 - Matchbox. The Beatles in Mono box set includes the first release of many of The Beatles original mono mixes on CD but it also actually is the first time some of these mixes have ever been released in any format (including vinyl!). Pepper's Lonely Hearts Club Band (50th Anniversary Super Deluxe Edition) (2017). Quality: FLAC 16 bit / 44. The Beatles In Mono: Discografía oficial remasterizada y lanzada en 2009, mezclada en mono. The Ballad Of John And Yoko (Australian Mono Mix) 26. The Beatles (The Original Studio Recordings) – also known as The Beatles: Stereo Box – is a boxed set compilation comprising all remastered recordings by British rock group the Beatles. lrc: 1 KB: 03 From Me To You Mono - Remastered. 1 kHz (Tracks) Artist: The Beatles Title: Yellow Submarine [Remastered] Released: 1969/2016 Style: Pop Rock, Classic Rock RAR Size: 239 Mb. 2 - Live Anthology : Tour Of America 1965 (MBE) (1970) (FLAC) The Beatles - Lossless - The Beatles (UK mono LP) (Spamalot needledrop) (1970) (FLAC). Postman [Mono] 10-I'll Get You [Mono] 11-She Loves You [Mono] 12-Roll Over. What would be the disadvantages of converting these stereo tracks into mono rather than buying the mono remasters? Would there be a difference at all? Stereo is annoying when listening in headphones. Back to Basics - Beatles For Sale Sessions CD2 - "23 - I Feel Fine (RM from Take 9 V1) (mono with stereo reverb). The Beatles were an English rock band that formed in Liverpool, in 1960. rarl 19 Novembre 2019. 95 MB 06 tB,SPLHC06-She's Leaving Home. The set was issued on 9 September 2009, along with the remastered mono recordings and companion The Beatles in Mono and The Beatles: Rock Band video game. Catalog #: TOCP-71041-53 Style: Rock Year: 2009 Format: FLAC (image +. on Oct 8, '68 13. I Saw Her Standing There / Misery / Anna (Go To Him) / Chains / Boys / Ask Me Why / Please Please Me / Love Me Do / P. 02 - Dear Prudence 03 - Glass Onion 04 - Ob-La-Di, Ob-La-Da. The Beatles - FLAC Stereo and Mono Box Sets + Extras Audio (FLAC). Lucy In The Sky With Diamonds (Unreleased Mono Mix - No. flac 17 MB 25 - Komm Gib Mir Deine Hand - Something New Mix (stereo). FLAC The Beatles - The U. The Beatles in Mono is a boxed set compilation comprising the remastered monaural recordings by the Beatles. A stereo White album tape was sold for £120 in October and a stereo "Abbey Road" brought £114 in December. The set was issued on 9 September 2009, along with the remastered mono recordings and companion The Beatles in Mono were also released, along with The. Pepper's Lonely Hearts Club Band (1967/2017) FLAC (tracks) 24-bit/48 kHz | Stereo | Time - 46:58 minutes | 613 MB ADVD: LPCM Stereo Track to FLAC 24/48 | + Artwork: DLX Digital booklet It was 50 years ago when The Beatles' John Lennon, Paul McCartney, George Harrison, and Ringo Starr astonished and delighted the world, ushering in the Summer of Love with Sgt. Ebbetts has decided to retire, so that may say something about the quality. 84 MB] Beatles. Pepper's Lonely Hearts Club Band (mono)R-499497-1456047383-9489. Simply amazing. Even though the tracks are "mono," they're actually stereo, with each channel being identical. Unfortunately there were a couple of big issues with the way their music was released on CD. 1 CD1 THE EARLY YEARS 1958-1963 01 - That'll Be the Day (Liverpool 1958) 02 - One After 909 (Hamburg 1960) 03 - I'll Follow the Sun (Hamburg 1960) 04 - Matchbox (Hamburg 1960). 25 GB: 0: 0: The Beatles - 5. The Ballad Of John And Yoko (Australian Mono Mix) 26. There will be two box sets; a limited-edition mono box set will contain. 08 tB,SPLHC08-Within You Without You. You're Going to Lose that Girl. flac -C 8 mono. Beatles bootleg flac Sweepstakes. flac: 15,483 KB: 03 From Me To You Mono - Remastered. The - Help! (UK Mono Ebbetts) - 05. 2009 - The Beatles Stereo Box Set 2009 - The Beatles In Mono Box Set 2010 - The Beatles 1962-1966 / 1967-1970 Box Set 2013 - Live At The BBC If you want to split a single. FOR SALE ON EBAY RIGHT NOW. 2 MBytes yEnc DrummerDude 07-Jul. It will contain 10 of the albums with their original mono mixes, plus two further discs of mono masters (covering similar ground to the stereo tracks on 'Past Masters'). 2 (Mono) CD10 - The Beatles' Million Sellers (Mono) CD11 - Yesterday (Mono) CD12 - Nowhere Man (Mono) CD13,14 - Magical Mystery Tour (Mono-Stereo) CD15 - The Beatles Bonus CD (Stereo) DOWNLOAD uploadgig. 00 MB] Beatles. Johns worked from 7pm-11. With John Lennon, Paul McCartney, George Harrison, and Ringo Starr, they became widely The Beatles - [Discography][FLAC] ~Jooker99. The set was issued on 9 September 2009, along with the remastered mono recordings and companion The Beatles in Mono and The Beatles: Rock Band video game. flac9,840 KB07 Komm, Gib Mir Deine Hand. Torrent Info for The Beatles - 5. The Beatles in Mono is a boxed set compilation comprising the remastered monaural recordings by the Beatles. The Beatles themselves spent most of their energy working on the mono mixes up through Magical Mystery Tour. 2 (Extracts From The Album) (Mono) CD08 - Beatles For Sale (Mono) CD09 - Beatles For Sale No. usually just use the FLAC files I copied onto my PC. 59 GB: 0: 0. 18 -===- D:\Torrent Downloads\Music\Beatles Deluxe - 06 Rubber Soul\Disc 2 - mono\18 Michelle (US mono). Albums is a boxed set compilation comprising the remastered American albums released by the Beatles between 1964 and 1970. 5 out of 5 stars (12) 12 product ratings - The Beatles in Mono Vinyl Box Set (14 Discs, Sep - 2014) VERY NICE!. Arts and Entertainment: Music • Published: November 9, 2009. On this day he put together a second Get Back LP for their consideration, although it too was rejected. In Reply to: RE: Anyone heard Apple's 24 bit Beatles FLAC rips from the USB? posted by b. I have Beatles FLAC Discography. Five CDs, featuring studio and mono versions of session tracks, demos, and alternate mixes. Strawberry Fields Forever - SI onto take 1 Nov 28th 1966 - Studio 2, 7:00pm-1:30am 4. [Mono] Bad Boy [Mono] The Ballad Of John And Yoko [Mono] Beatles Medley [Stereo] Being For The Benefit Of Mr. 5 years to the day after the release of The Beatles in Mono, a box set of the group’s monaurally mixed catalog through 1968, the band is issuing a vinyl version of the box set. Some of the stereo mixes were done separately from the mono versions so there are small differences. cue Audio file: The Beatles - Mono Masters (CD1). Back to Basics - Beatles For Sale Sessions CD2 - "23 - I Feel Fine (RM from Take 9 V1) (mono with stereo reverb). Here is the link to both the Beatles in 24 Bit FLAC and mono for all of you who havent experienced them in this format. cue file Original Releaser: dafnaplus. The Beatles - Mono Vinyl Remaster 2009 The Beatles - TBIM A Hard Days Night (2014 Vinyl Remaster 2009) 24Bit FLAC Beolab1700 covers/01 - A Hard Day's Night - Front. 1 kHz / 16 Bit Source: CD Album Artist: The Beatles Album Name: Discography Label, Catalog: Various Genre: Rock Release Date: 1963-2015 ArtWork: included (complete set) Original Masters. Pepper's Lonely Hearts Club Band (Reprise) -Overdubbed two-note guitar lick in mono (transition from GMGM), in stereo it's badly spliced and the first note is cut off -Audible speech from John before "1-2-3-4" in mono, not in stereo -Audience laugh in mono, crowd noise in stereo (no laughs) -Paul screaming at the end is very audible in mono, but buried very deep in the mix, almost inaudible, in stereo. Genre : Rock Release Date : 2019 Format : Flac (tracks) Quality : 24bits - 96. 413; FLAC • 531 kbps • 16 bit \ 44100 Hz • stereo; 164. Robert 24bit/96khz MFSL Stereo] Please Please Me - MFSL1-101 With the Beatles - MFSL1-102 A Hard Day's Night - MFSL1-103 Beatles for Sale - MFSL1-104 Help! - MFSL1-105 Rubber Soul - MFSL1-106 Revolver - MFSL1-107 Sgt. Relative Channel Loudness. The sound is a 6 out of 5, except the Mono Masters, which is a 5 out of 5. flac12 MB05 I`ll Get You. FLAC, about the same as vinyl but gained lower. 2009 - The Beatles Stereo Box Set 2009 - The Beatles In Mono Box Set 2010 - The Beatles 1962-1966 / 1967-1970 Box Set 2013 - Live At The BBC If you want to split a single. Vinyl and FLAC are both good. Sweet Georgia Brown (US Version Mono) (Double CD :: Ex+ Soundboard :: MP3 @320 Kbps & FLAC) 6 years ago. I've been a Beatles freak since I was 8 years old, so seeing or hearing new music, pictures or stories is a great pleasure. 02 Please Please Me Mono - Remastered. By Jackson Weinheimer Digital Version of The Beatles in Stereo Box Set The Beatles USB includes all of the same elements that the very popular Beatles in Stereo Box Set contains, the only difference (and it's a big one) is that the USB contains digital versions of the 16 remastered stereo CDs, 1 DVD (which contains 13 mini-documentaries), extended liner notes (for each album), previously. 'With the Beatles' is a terrific album that I would say ranks only behind 'Help !' and 'A Hard Day's Night' as the best of the band's pre- 'Rubber Soul' LPs. Pepper's Lonely Hearts Club Band-50th Anniversary Super Deluxe Edition(4CD-Capitol-320kbps/FLAC) Penny Lane (Capitol Records Mono US Promo. 06/09/2020 06/09/2020 bryz. Ebbett MONO. The Beatles - Anthology Outtakes (STU/FLAC) Deluxe Revolver. The set was released on compact disc on 9 September 2009, the same day the remastered stereo recordings and companion The Beatles (The Original Studio Recordings) were also released, along with The Beatles: Rock Band video game. 23 - Komm Gib Mir Deine Hand (Unknown Take Partial) (mono). Electronic. A seriously audiophile-minded undertaking! The Beatles in mono is how most listeners first heard the Fab 4's first recordings, when mono was the predominant audio format. (STUDIO CHAT) (MONO) 19. 00 MB] Beatles. Vinyl and FLAC are both good. The Beatles Live At The Hollywood Bowl - Deluxe Edition Purple Chick Lineage: SilverCDs--> EAC(secure)--> Flac--> Demonoid DISC ONE The Beatles At The Hollywood Bowl. The Beatles (The Original Studio Recordings) – also known as The Beatles: Stereo Box – is a boxed set compilation comprising all remastered recordings by British rock group the Beatles. In 2009, the Beatles reissued their original catalog in new remastered editions, highlighted by two separate box sets containing their complete works in stereo and in mono (although the latter did not contain their last two studio albums); in 2012, the stereo remasters were released on vinyl. This one is really stomping me. 1 kHz / 16 Bit Source: CD Album Artist: The Beatles Album Name: Discography Label, Catalog: Various Genre: Rock Release Date: 1963-2015 ArtWork: included (complete set) Original Masters. Mono edition. Unissued). I Saw Her Standing There / Misery / Anna (Go To Him) / Chains / Boys / Ask Me Why / Please Please Me / Love Me Do / P. The Beatles - If I Fell (Mono Mix) [02:22] 9. Credited to Lennon–McCartney, "Help!". 'The Beatles in Mono' gathers together, in one place, all of the Beatles recordings that were mixed for a mono release. King’ Singers (2011) PS3 Rip | ISO | SACD DST 64 2. 2 - Live Anthology : Tour Of America 1965 (MBE) (1970) (FLAC) The Beatles - Lossless - The Beatles (UK mono LP) (Spamalot needledrop) (1970) (FLAC). Then, AS THE ORIGINAL CD IS MONO I converted the STEREO FLAC to MONO FLAC using sox: sox. rar Size: 332. Reel rips are preferred, but I realize that it is unlikely for someone to have the equipment to rip a 2 track reel in 2020. 08 tB,SPLHC08-Within You Without You. Williams MONO and A. 2 (Mono) CD10 - The Beatles' Million Sellers (Mono) CD11 - Yesterday (Mono) CD12 - Nowhere Man (Mono) CD13,14 - Magical Mystery Tour (Mono-Stereo) CD15 - The Beatles Bonus CD (Stereo) DOWNLOAD uploadgig. I've been a Beatles freak since I was 8 years old, so seeing or hearing new music, pictures or stories is a great pleasure. The announcement was made earlier today by Robert A. ebbetts dbm 055 - the beatles hottest hits - danish mono picture tracks: dr. Pepper's Lonely Hearts Club Band (mono)R-499497-1456047383-9489. I found a couple of MP3 rips, but I wanted to have FLAC rips of the original vinyls. Credited to Lennon–McCartney, "Help!". You Really Gotta Hold On Me. 91 MB] Beatles. Reel rips are preferred, but I realize that it is unlikely for someone to have the equipment to rip a 2 track reel in 2020. TRACKS LIST: 01 - Long Tall Sally. After some time I gave up, forgetting about the mono Beatles until the Gizmodo's audio week. The Beatles USB memory stick is the digital version of The Beatles in Stereo Box Set which was released on 9/9/9. 1 surround sound, restoring depth to the recordings' rich and luscious soundscapes while retaining the original "mono" centered soundstage intended by the band. The beatles mono flac. The Beatles - Rubber Soul?????: Rock?????: LP????? ?????: 1965/1984: Parlophone - PCS 3075?????-?????: UK. THINK FOR YOURSELF (RS FROM TAKE 1) (STEREO) 20. flac 17 MB 25 - Komm Gib Mir Deine Hand - Something New Mix (stereo). And Apple Corps coulda/shoulda provided the Anthology tracks, the Anthology DVD files, the stereo remasters of the songs on Yellow Submarine and Love and 1. The - Help! (UK. Little Child 6. This is as good as you can get at the moment. cue) Качество: lossless Сканы: комплект (600 dpi) The Beatles - 1 flac download. Pepper's Lonely Hearts Club Band (Japanese Mono LP) With The Beatles (Japanese Mono LP) Yellow Submarine (Japanese Mono LP). Its the stereo Remaster. 1 Mono Collection 2 (2020) - 2 Compilations + 2 Bonus Albums - 24bit FLAC [SexySadist. flac Extracted successfully Conclusion: Could not qualify the source of this track. lrc: 1 KB: 04 She Loves You Mono - Remastered. flac" (1/91) 21. I ripped The Beatles in Mono to FLAC. flac Extracted successfully Conclusion: This track looks like CDDA with probability 100% 19 -===- D:\Torrent Downloads\Music\Beatles Deluxe - 06 Rubber Soul\Disc 2 - mono\19 - We Can Work It Out (TV mono). Ebbetts Sound Systems). Re: Convert Stereo FLAC to Mono FLAC Originally Posted by mville A word of advice, that this won't give you The Beatles (The Original Studio Recordings) in mono, rather, a mono version of The Beatles (The Original Studio Recordings) Stereo, and the level of the vocals and instruments will still differ from the The Beatles in Mono mixes. 02 Please Please Me Mono - Remastered. The Beatles (The Original Studio Recordings) - also known as The Beatles: Stereo Box - is a box set compilation comprising all remastered recordings by English rock band the Beatles. Issued in both stereo and mono for the U. The original Flac file is not affected when you create the Apple version. flac" MD5: 4785216D02BE3779A48A094DC6D5D38C. SBD overall great compilation, recommended!!. As a couple of "for instances," if I had only the mono mixes, I'd miss out on the stereo "Money," and if I had only the stereos, I'd miss the mono "Lucy in the Sky with Diamonds. The Kinks Mono Kollectables - Volume One 9-1 Long Tall Sally (Single) 9-2 You Still Want Me (Single) 9-3 You Do Something To Me (Single) 9-4 Beautiful Delilah (Alternate Mono Mix) (Prev. Includes all of the same audio & visual elements as the stereo box set, but in digital format instead. Abbey Road, in their wisdom, must have mastered the whole Beatles catalogue in 24-bit 192khz before the issue of the FLAC USB, and I'm sure that they mastered this vinyl set from the 192khz masters. The Beatles - Red Wax Mono Yellow Submarine Beatles For Sale - Red Wax Mono A Hard Day's Night - Red Wax Mono Rubber Soul - Red Wax Mono UK Singles Collection UK EP Collection US Singles Collection Yellow Dog Day By Day Fabulous Sound Lab Swedish Radio Show Live The Beatles And The great Concert At Shea The Beatles At The Hollywood Bowl. 2 (Mono) CD10 - The Beatles' Million Sellers (Mono) CD11 - Yesterday (Mono) CD12 - Nowhere Man (Mono) CD13,14 - Magical Mystery Tour (Mono-Stereo) CD15 - The Beatles Bonus CD (Stereo) DOWNLOAD uploadgig. Five CDs, featuring studio and mono versions of session tracks, demos, and alternate mixes. Until then, there’s always a $1000-plus Mo-Fi LP box-set up for bid on eBay. Pepper's Lonely Hearts Club Band (1967/2017) FLAC (tracks) 24-bit/48 kHz | Stereo | Time - 46:58 minutes | 613 MB ADVD: LPCM Stereo Track to FLAC 24/48 | + Artwork: DLX Digital booklet It was 50 years ago when The Beatles' John Lennon, Paul McCartney, George Harrison, and Ringo Starr astonished and delighted the world, ushering in the Summer of Love with Sgt. Please Mister Postman 8. A seriously audiophile-minded undertaking! The Beatles in mono is how most listeners first heard the Fab 4's first recordings, when mono was the predominant audio format. And I Love Her [Mono - Single-Tracked Vocal] And I Love Her [Stereo - Extended Ending] And Your Bird Can Sing [True Stereo] Anytime At All [Mono] Any Time At All [True Stereo] Back In The U. info 955 MB 2019-01-30 0 1 The Beatles - Live at the Hollywood Bowl (2016) AAC | iTunes. FLAC A Hard Days Night Studio Sessions: Back To Basics Vol. (Studio FLAC) Lineage: SILVER -> EAC SECURE -> WAV -> FLAC FRONTEND 5 -> FLAC Released : July 2008 Disc 1 Nov 24th 1966 - Studio 2, 7:00pm-2:30am 1. All things look normal but press OK and it closes the dialog box as normal and does nothing at all. THE BEATLES CASUALTIES - (Containing the so rare Japanese MONO original, not fold down, version of LET IT BE) SPRO-9469 THE BEATLES PAST MASTERS VOL. Even though the tracks are "mono," they're actually stereo, with each channel being identical. Here is the link to both the Beatles in 24 Bit FLAC and mono for all of you who havent experienced them in this format. beatles/hey jude btl 1009 (-70) mono brazil Since this isn't a fold down from the stereo but have all the original '45 mixes, I think it's worth a lot more attention and a repost. Issued in both stereo and mono for the U. lrc: 1 KB: 03 From Me To You Mono - Remastered. The Purple Chick releases have a similar structure in all their presentations: - Official LP Audios (in Stereo and Mono were available). Compression Method: FLAC 245 choice outtakes, live concert tracks, demos, overdub sessions, and rehearsals (10CD). flac10 MB04 The Inner Light. Tracklist:. info 955 MB 2019-01-30 0 0 The Beatles - Love (WEB) / Rock / 2016 / FLAC / Lossless. the beatles - the beatles in mono (box) 11 albums supertramp - 1970 - 2005 [flac] roberto carlos - discografia en espaÑol + italian little river band [1975 - 2013] [27 cds] the ventures - 1960 -2010 dusty springfield - coleccion [1964 - 2014] varios - super schlagerparade [1965 - 1986] maria dolores pradera 1959 - 2014. Then I put the little Beatles USB back in the Apple it came in, placed all original documentation in the box and put it away. Item: "F:K-SEEDThe Beatles - The Alternate Sgt. Relative Channel Loudness. I have 3 versions of most Beatles albums and I’ve sorted them to show the 24bit with the stereo and mono versions as "versions " However the White Album insists in making a 60 track double album rather than two 30 track albums. The BEATLES (‘White Album’) was the first Beatles album to be released on the group’s own Apple Records label. Pepper's Lonely Hearts Club Band (mono)Sergeant mono. Beatles, The - Past Masters Selection (Remastered Edition RMW 028) [SBD] MP3 + FLAC Encoded: 320 Kbps MP3 & FLAC True Mono Mix 06 Lucy In The Sky With. 01 GiB, ULed by insinuendo, 2, 0 Audio (FLAC). File formats: FLAC, WAV, MLP, APE, TTA, ALS, etc. The Beatles – Please Please Me (1963/2009) FLAC (tracks) 24 bit/44,1 kHz | Time – 32:28 minutes | 429 MB. Beatles ebbetts flac. Torrent Info for The Beatles - 5. 18 -===- D:\Torrent Downloads\Music\Beatles Deluxe - 06 Rubber Soul\Disc 2 - mono\18 Michelle (US mono). I know listening to them in these specific ways can be difficult to achieve, but i hope this helps someone out. The Beatles - Sgt. flac Extracted successfully. Albums Artist: The Beatles Release: 2014 Style: Rock Country: UK Time: 685:36 Audio: FLAC Losseless Size: 4,04 gb The U. However, they are in stereo since it’s likely the source came from original stereo mixes back when Beatles catalogue first became available on CD. The Beatles - 5 1 Mono Collection (2020) - 10 Studio Albums [ FLAC] v62: 12. Considering how much music had already found its way to CD, the Beatles were very late, so the digital rollout was a big deal. For the best expression of the Beatles’ 24-bit/192kHz digital remasters, you can hope Capitol releases this catalog on Blu-ray. 06/09/2020 06/09/2020 bryz. Vinyl and FLAC are both good. The Beatles in Mono Box Set is a Beatles purist’s drum come true. The memory stick contains 44kHz FLAC files, but they are in 24 bit of superior audio quality in comparison to CDs (which are 44kHz/16bit, which is all a standard CD can handle). 25 GB: 0: 0: The Beatles - 5. In 1987, the Beatles' albums appeared on compact disc for the first time. THE BEATLES / WHITE ALBUM COLLECTION MONO MIXES IN STEREO AND DVD AUDIO 新品プレスDVD +2 CD. I have created this blog in order to share my collection with others. The Beatles / Mono Masters (CD1) CUE file: The Beatles - Mono Masters (CD1). For those of us in the States, it's kind of creepy when you realize that this album was released in the UK on November 22, 1963, the same day as President John F. (The Godfatherecords :: G. Singles Collection Vol. The original Flac file is not affected when you create the Apple version. zeebub on December 14, 2009 at 11:03:38:. The Beatles Box [Vinyl 24bit-192khz] 14 Albums 1963-1988 36 comments. The Beatles - Please Please Me (1963/2009) FLAC (tracks) 24 bit/44,1 kHz | Time - 32:28 minutes | 429 MB. Although the quartet put out stereo versions of their albums concurrent with the mono ones throughout most of their career, the Beatles considered the mono versions as. Hey Jude (Short Edit Version) 23. 8224 MHz | 54:26 minutes | Scans included | 3,7 GB or FLAC 2. 00 in October 2014, and the same month, a 1st edition "With The Beatles" was sold for £11. "Help!" is a song by the English rock band the Beatles that served as the title song for the 1965 film and its soundtrack album. Here is the link to both the Beatles in 24 Bit FLAC and mono for all of you who havent experienced them in this format. Eric Clapton - Greenwich Town Party 2018 (2018-05-26; The Rolling Stones - London Stadium (2018-05-22) Mark Knopfler And Friends - Dire Straits And Hillbillies Farewell (2002-07-23+24+25). Issued in both stereo and mono for the U. The Beatles Mono Masters – Mono Mixes in Stereo A much welcomed surprise from Mirror Spock arrived a few weeks ago, THE BEATLES MONO MASTERS – (mono mixes in stereo) and I must say this has been one of the most delightful remix CDs that I’ve had the privilege of cranking up on the stereo. As you probably already know (since you’re reading this blog on home recording) 24bit is the standard for digital mixing and mastering these days. Johns worked from 7pm-11. The remastering project for both mono and stereo. Five CDs, featuring studio and mono versions of session tracks, demos, and alternate mixes. 34 MB) Japan MONO Masters TOCP-71042 Digitally Remastered 2009 Tracklist 1. and in stereo for the U. The Beatles had involved themselves in creating only the mono mixes for the first four albums; the stereo mixes were prepared without their supervision. flac: 19,304 KB: 04 She Loves You Mono - Remastered. File formats: FLAC, WAV, MLP, APE, TTA, ALS, etc. The Beatles in Mono Vinyl Box Set (14 Discs, Sep - 2014) VERY NICE! 4. 1 MB) 123 - Can’t Buy Me Love. 1 MB) 124. REVIEW: THE BEATLES MONO MASTERS –mono mixes in stereo (Mirror Spock) –Released April, 2010 By Beatle Bob A must welcomed surprise from Mirror Spock arrived a few weeks ago, THE BEATLES MONO MASTERS – (mono mixes in stereo) and I must say this has been one of the most delightful remix CDs that I’ve had the privilege of cranking up on the stereo. FLAC employs a lossless data compression algorithm. 1 Mono Collection 2 (2020) - 2 Compilations + 2 Bonus Albums - 24bit FLAC [SexySadist] 5 days : audio: 69: 5. The memory stick contains 44kHz FLAC files, but they are in 24 bit of superior audio quality in comparison to CDs (which are 44kHz/16bit, which is all a standard CD can handle).